While the kick hits four-to-the-floor, the tom sounds at measures 7 and 15, with a simple variation at the end of the four bar loop. Check the details for each plugin to see if it works on your system. Login 2:53 - Sample at: 2:02. Maybe with short drum samples licensing is not such a problem (I am unsure about the legal aspects). With authentic instruments and a superbly replicated performance focusing on preserving the original enthusiasm, spirit and enjoyment of the songs. Our Professional Writers will be glad. Vague Roses: Future RnB & Soul. The Beatles' original drop-T logo drum head, used by the band from May 31, 1964 through August 1, 1965, is for sale over at BeatlesAutographs. Beatmaking Videos. Online Drum Machine, Qwerty Beats, Drum Loops, Samples, Breakbeats, Remix, WAV Samples, Keyboard Drums, uπit (unit), Electronic Music Production,. I've been building this personal collection of drum samples for years and it's being released now as a free bonus sample pack for the first music making contest on 99Sounds!. , was established in 1964, and for their first Christmas, the American fan club sent fans the 1963 Christmas message on a soundcard, which is like a flexi-disc, but is. 290) Alex was certainly clever, a good electronic technician; but the boys pandered to his wildest whims. If you're looking for strings, focus on the strings. 99 Play: Preview samples through headphones or earbuds for best quality. These are some of our favourites. You can set the keys to match drums and cymbals by clicking the "keys" button from the game menu, the drum sounds and the key settings are different in every online drum. Each sample is trimmed down and contains original artist info with each file. Intro video contains a drum arrangement sample from challengerdrums. 0 % Test CRC D2BEF390 Copy CRC D2BEF390 Copy OK No errors occurred AccurateRip summary Track 1 not present in database Track 2 not present in database Track 3 not present in database Track 4 not present in database. Contact us if you only see the "drum and bass" version listed in your search and we will make it available. ````We know what it means to. ℗ 1962 Original Sound Recording made by EMI Records Ltd. Later on, in 1969, the album Abbey Road was released. It is a nice size and beautifully crafted in true Christopher Radko style. That will save you a lot of trouble later on. 170 BPM Drum and Bass. The asking price is $2,000,000. It's Sept. Bandmans carry a large selection of very popular marching band uniform coats, shield, bibbers along with a large array of dance, majorette, and color guard uniforms all in stock for immediate delivery. Ringo Starr playing drums on stage with The Beatles; circa 1970; New York. Drum sheet music can be difficult to come by. More than just a free trial, all the packs in FREE are powerful instruments and effects in their own right. As Ludwig's flagship professional drum line, Legacy Maple is a decidedly modern twist on our vintage shell formula. Lil Tjay – Forever Pop (Instrumental) February 29, 2020. A boxy kick drum sound is also a common nuisance, which can be fixed with Eq’ing out the boxiness that resides in the area around 300 – 600Hz or so. 00 (regular price $594. Choral, Drums, Guitar, Tenor Saxophone, Trombone, Trumpet II, Trumpet I (Combo Parts) By The Beatles. By the way, if you make Trap Music, you should DEFINITELY grab this free Hybrid Trap sample pack that we created for you. 00) An iconic symbol of the music industry since 1931, Abbey Road Studios has set the stage for countless landmark recordings by artists such as The Beatles, U2, Frank Ocean, Kanye West, and Radiohead – to name just a few. The Beatles 250px The Beatles in 1964. Drum Outfits, Snare Drums, Marching & Concert Drums, Timpani, Mallets, Drumsticks, Drumheads, Atlas Hardware, Atlas Drum Luggage and much more. OPUS 17 Trance Logic Pro X Template. Official Pretty Green site. It is from the Beatles son. As somewhat of a Beatles gear expert, the drum set is quite curious for a couple of reasons. A member of the Drumming. As Ludwig's flagship professional drum line, Legacy Maple is a decidedly modern twist on our vintage shell formula. All drums were recorded at Abbey Road Studios in London, UK, using period equipment and recording techniques. Peace & Love, the official site for Ringo Starr. The Beastie Boys famously ripped a bevy of Beatles samples on "The Sounds of Science," from their landmark 1989 album, Paul's Boutique, but that was in the heady days before clearing samples. The Beatles - Beatles For Sale You are currently listening to samples. Tuning: E A D G B E. Wobble Bass House. Source: BBC. Here is a collection of over ninety awesome effects plugins that have one thing in common: they're free. Start Today!100% Money Back Guarantee. If you’re looking for a one-stop Beatles-mimicking software solution, this has to be it. Mirek's work includes the Beatles Anthology 5. All drums were recorded at Abbey Road Studios in London, UK, using period equipment and recording techniques. Ringo Starr playing drums on stage with The Beatles; circa 1970; New York. 9 The Recording Academy, AEG Ehrlich Ventures and CBS will present "The Beatles: The Night That Changed America — A GRAMMY Salute. wav Peak level 99. A huge archive of traditional, folk & old music - song-books with lyrics & chords, tune-books, sheet-music, scores, old songs, midi backing tracks, tabs, music lessons & theory, learn to play guides for various instruments, chord diagrams, scales and other music educational & academic reference materials. I wanted to share a brilliant one I found today!. Beatport is the world's largest electronic music store for DJs. On this page you'll find mp3 sounds as well as wma sounds. High quality custom drums and drum building supplies, including drum recovering wraps, drum hardware, and Keller drum shells - and drum repair services, are just some of our offerings. Release Date November 20, 2006. Piano Chord Chart - Piano Chords for Songs When it comes to playing songs on piano, piano chords are your best friends, if you know your chords, you know your songs, that simple. EDM Drop Logic Template. com, the largest library of official, licensed digital sheet music. All Garageband samples are available to download 100% royalty free for use in your music production or sound design project. I think The Beatles compressed (smashed) the drums whole most of the time, right? That is, they ran the whole kit through one compressor, not individual toms and snare and kick, etc. More information Saved by Maryann Mauro. 1 part • 7 pages • 12:57 • 1 hour ago • 4 views. 331 free '90s ambient samples. The song was covered by the Mamas and Papas (in. I have been asking this myself for a long time now. 17 Bat Country - Avenged Sevenfold. Click these links to preview low-quality MP3s made from the actual 16-bit 44khz WAV / AIFF stereo samples. 378 free 808 drum samples. • Birthday • Can't Buy Me Love • Come Together • Eight Days a Week • Get Back • Help!. You can do this with a Wii remote by choosing the Beatles Rock Band game and then pressing "A" to advance to play mode. 4 in the United Kingdom. 100% of the samples on this site are free, but registration helps us fight robots. Mike Will Made it Sounds Kits Contains: Bell Brass Loops Drum Kit Hits Sound Fonts Synth Loops Whistle Loops. There are 2 elements to FREE; the Free Packs include completely standalone packs – they’re not. Drum Sheet Music, Level 2/4 Get Back - The Beatles - Drum Sheet Music. Expect to find an assortment of 808 kicks, sub bass, snares & claps, percs, vox and more. Sample Preview: Listen To "Here Comes The Sun". The Beatles followed this with four additional movies: Help! (1965), Magical Mystery Tour (1967), Yellow Submarine (animated, 1968), and Let It Be (1970). It's a cool practice tool to not only help you learn new songs, but it is also great for developing timing and timekeeping skills. 99 Drum Samples is a free collection of electronic and acoustic drum hits which have been built from scratch and processed with internal and external audio gear. 15 Shea Stadium Concert. It's so tight, almost like an electronic sample. Ringo Starr did not receive co-writing credits for his drumming contributions on Beatles songs, for example, even though his drum parts have often been retrospectively deemed by musical peers to. It’s known for its unique beats and synth music. The TD-17 module includes 50 ready-to-play kits suitable for any music style, plus a wide range of easy-to-use training functions that encourage skill development and make practice fun and productive. 9% of germs and bacteria, this sanitizer on the go will keep your hands squeaky clean. If all of that doesn't work then you have a hardware problem and will need to contact Nintendo. The drum track above comes from "Next to You," a song on the band's debut album, during their decidedly anti-Rush phase. All Genres > Breaks Samples Chillout Sounds Downtempo Loops Drum and Bass Samples Electro Samples Hip-Hop Samples House Samples Jazz Samples Percussion Samples Techno Samples Trance Samples World Sounds Disco Samples FX Samples Soul Samples Dubstep. Various Vinyl Samples. Ringo Starr’s drums, locked in to McCartney’s high bass guitar notes, were a key feature of the song. Download Mike Will Made It Drum Kit 2019 for free. I've been building this personal collection of drum samples for years and it's being released now as a free bonus sample pack for the first music making contest on 99Sounds!. Final Verdict - Best Drum Software 2018 When it comes down to comparing these 3 choices, I think there's clear path to which is best for you. I’ve been building this personal collection of drum samples for years and it’s being released now as a free bonus sample pack for the first music making contest on 99Sounds!. I heard it is rather hard to clear Beatles samples. You can set the keys to match drums and cymbals by clicking the "keys" button from the game menu, the drum sounds and the key settings are different in every online drum. has the experience, product lines, and reputation to serve all your drumming needs. Hey, thanks so much for finding me! This is the place to check out my Original Chi Might Project and Cover Collaborations that I was involved in. The Beatles - Sgt. But when, Ringo saw a sample chip of Ludwig's new Oyster Black Pearl finish lying on Arbiter's desk he had an immediate change of heart. 3/4 drum loops Drum Kits 5/4 free-loops. If the balance is set to either side of 0. "While my guitar gently weeps" suits Jay-Z' voice pretty well. Hear The Beatles In Rehearsal, Looking Through A 'Glass Onion'. 12 EST Last. JG Windows is one of the oldest and most respected music businesses in the UK, having been founded in 1908. Cartoon musical instrument accent - flute - trill 1. As Ludwig's flagship professional drum line, Legacy Maple is a decidedly modern twist on our vintage shell formula. { "inCheckoutPromo": [] , "thumbImageID": "SD200-Electronic-Drum-Kit-with-Mesh-Snare-Black. The Fab 5 is a Houston, Texas based Beatles Tribute Band performing the greatest hits of THE BEATLES, and the Pop Beat music of The 60's and 70's! With their timeless tunes, 60s period Beatles. Berklee Online is the online school of Berklee College of Music, delivering access to Berklee’s acclaimed curriculum from anywhere in the world. By Jose the Plug) February 29, 2020. Certified Audio LLC. The final version, recorded on September 11th, features session musician Andy White on drums, as George Martin was then still unsure about Ringo's drumming skills. The Beatles, the video game "It will span samples of the whole catalogue all the way through. 331 free '90s ambient samples. Browse our collection of Garageband samples, sample packs, loops, one shot drums and sound effects. Now includes Drum Particles Kontakt instruments - Modern Retro edition, for even more power and flexibility! Two kits that helped shape the sound of the 90s: a Sonor Designer from 1997 and a Tama Starclassic, 72 pieces, 67499 samples, 15 GB compressed, 19 Styles and 1119 patterns. Savoy Truffle (All Vocals and Instruments (except drums) by David Simon one of our many backing track users) – Savoy Truffle featuring David Simon. I think The Beatles compressed (smashed) the drums whole most of the time, right? That is, they ran the whole kit through one compressor, not individual toms and snare and kick, etc. With it you can control drum beats, fills, transitions, drum breaks, and accent hits all with just your feet. Various Vinyl Samples. "While my guitar gently weeps" suits Jay-Z' voice pretty well. It has a long history of ups and downs yet lives on for as long as DnB does. It is adored by the world. We know it's a long time since the last FLSM freebie, but with this release, we just started a new series of sample packs, tutorials and project files. Drum Outfits, Snare Drums, Marching & Concert Drums, Timpani, Mallets, Drumsticks, Drumheads, Atlas Hardware, Atlas Drum Luggage and much more. So yesterday morning I was on facebook when an ad popped up in my feed for a light up Beatles bass drum head wall display. The site is all that - as much a reflection of how we view our own history as it is a history of the band. Wobble Bass House. 1 product ratings - Pearl Road Show Drum Set 7 Piece Wine Red w. Listen to a few sample Beatles song tracks! Savoy Truffle (All Vocals and Instruments (except drums) by David Simon one of our many backing track users) - Beatles Song Samples. Ripping Drum Tracks From MIDI Files: This Instructable walks you through ripping a drum track from a MIDI song. Here Comes The Sun - The Beatles - Drum Sheet Music $ 3. Enjoy a wonderful selection of melodies for both yours and clients' videos, games, presentations, on hold, podcasts. The 12 pad interface is super intuitive and easy to use, making it an ideal choice both for beginners as well as experts. A metronome is just fine if your mind is fresh and you practice a specific part while fully concentrated, but if you are tired after work and just want to have fun, drum tracks are a great way to go. Free Maschine Samples #4: Vinyl Drums. Hear The Beatles In Rehearsal, Looking Through A 'Glass Onion'. Lil Tjay – Forever Pop (Instrumental) February 29, 2020. We offer contemporary, classical and educational free sheet music for all instruments. Ringo Starr of The Beatles plays the drums in Studio 2 at Abbey Road in London during the recording session for the single 'She Loves You', 1st July 1963. Filename C:\Users\London\Desktop\The Beatles - 1963 BBC Sessions. Below is the lesson for ‘Birthday’ by The Beatles. Its release marked the first time that reversed sounds appeared in a pop song, although the Beatles used the same technique on the Revolver track "Tomorrow Never Knows", recorded days earlier. Beatport is the world's largest electronic music store for DJs. Lennon and McCartney sang the song as a duet. All my quality free drum tracks, loops and beats are for all styles of music production or projects. These drum covers are sure to inspire you and give you ideas in your own drum covers!. In the early 1960s. "Rain" is a song by the English rock band the Beatles that was released on 30 May 1966 as the B-side of their "Paperback Writer" single. It was also Stokes who had painted the first Beatles drop-T head. Buy The Beatles Drum Collection by Beatles (ISBN: 0073999713022) from Amazon's Book Store. +650 free Metal drum backing tracks. -> GET A PERSONAL LOOP NOW. Free Samples and Loops Hey guys, my websites stats show me lots of sites that link into trisamples. Blues backing track #6872. by The Beatles. The Beatles, the video game "It will span samples of the whole catalogue all the way through. Set in a bright rock shuffle style, this solidly scored chart will make even the smallest bands sound great! (1:40) Sample Audio: Pages: 1 Item #: 00-PC-0016490_D. Chris Read, the head of content there, vets each. VST plugins can add power and flexibility to your digital audio workstation. FreeTabs offers musicians an extensive selection on Guitar, Bass, Lyrics, and Drum Tablatures in various formats, including Guitar Pro and Power Tabs. The Beatles live- at "The Cavern Club" 1962 (notice Ringo on drums!) What do you think of the club? In the year 1966, the Beatles published the record Revolver. The best classic rock songs are famous for their jaw-dropping drum parts. Each pack has multiple files with enough. More than just a free trial, all the packs in FREE are powerful instruments and effects in their own right. Punk-Rock backing track #16108. High quality custom drums and drum building supplies, including drum recovering wraps, drum hardware, and Keller drum shells - and drum repair services, are just some of our offerings. The music in this book matches these recorded orchestrations, and is carefully arranged for beginning pianists. Play 10 of Dire Straits' top hits with the help of these beats. Shop Men's clothing, shoes and accessories. Classic Beat Maker. Yamaha MusicSoft is the music store of the 21st Century - an online destination with everything you need to enjoy your instrument to its full potential. The Beatles were the first band I got into, and I've been a fan for 15 years or so, since I was a kid. sound library. Top that off with ready to go mixes, built-in effects and infinite expandability, Drum Masters 2 is the ultimate virtual drum solution! Example Drum Masters "Multi" Drum Kit Screen Shot Drum Masters 2 Multitrack Drums put you in control of the mix as if you had the original multitrack master tapes in your hands!. The Beatles consisted of Paul McCartney, who played bass, John Lennon, who played guitar, George Harrison, who also played guitar, and Ringo Starr, who played drums. PSYQUI - Don't you want me feat. The lyrics are also included for quick reference. "The Beatles in Mono" CD boxed set released in 2009 was created from digital masters. The total running time of single is nearly 10 minutes, which makes it extremely. *requires free membership. Members can add * midi files and request * midi files. “Ticket To Ride” began to be conceived as an idea for a future song as early as December, 1964 as recalled by The Beatles music publisher Dick James: “It was…during rehearsals for ‘(Another) Beatles Christmas Show’ at the Hammersmith Odeon, that I sat with Paul in the stalls, watching some of the other acts. A large collection of generic Rock beats for Rock singers/songwriters and performers alike. I've been reading Mix magazine for decades, and the new February 2020 edition has a fairly long article titled The Ultimate Remix: Beatles 50th Anniversary Editions that's a deep dive into exactly how it was accomplished. The Beatles at the Hollywood Bowl is a live album, and Martin and Clark decided to leave a little crowd noise in, even though Clarke says he achieved "nearly full separation" of the music and the. Are you looking for homework writing help on (Sample Research Paper on The Beatles)? Well, you can either use the sample paper provided to write your paper or you could contact us today for an original paper. Included with each play along track in mp3 format: Track 1 is a stereo track of the entire Beatles song with all the Instruments. Well according with "Recording the beatles" book and Geoff Emerick Book and a lot of interviews, "That Beatle drum compression" is without a doubt the Fairchild, when ringo hit the kick drum and the cymbal at the same time, this triggers the fairchild creating that sound that we all love. Yamaha MusicSoft is the music store of the 21st Century - an online destination with everything you need to enjoy your instrument to its full potential. The Beatles (Apple SWBO 101). Indeed, in the United States, Beatles released Sgt. Below is the lesson for ‘Birthday’ by The Beatles. Top that off with ready to go mixes, built-in effects and infinite expandability, Drum Masters 2 is the ultimate virtual drum solution! Example Drum Masters "Multi" Drum Kit Screen Shot Drum Masters 2 Multitrack Drums put you in control of the mix as if you had the original multitrack master tapes in your hands!. Inspired by the two music producers Hi Te, and Nottz. We offer contemporary, classical and educational free sheet music for all instruments. The Beatles consisted of Paul McCartney, who played bass, John Lennon, who played guitar, George Harrison, who also played guitar, and Ringo Starr, who played drums. The Beatles; The Beatles Drum Sheet Music. Here are the sections: Riff Verse Drum Breakdown Pre-Chorus Chorus Riff Outro. One drummer making a living from sample replay is Dylan Wissing, an American session musician who has re-recorded impeccable covers of famous drum breaks for the likes of Jay-Z, Kanye West, Drake. The best classic rock songs are famous for their jaw-dropping drum parts. All "drums only" tracks are in stereo (except where noted) and are are without bass. Beatmaking Videos. Vinyl Drum Samples - Includes 32 samples: kicks, snares, hi-hats, claps, crackle, hiss, and needle drops. First issued on 26th September, 1969 Abbey Road was the final Beatles album to be recorded but not their last to be released. The Beatles EP (Hey Jude/Revolution/While My Guitar Gently Weeps/Don't Pass Me By) Beatlemania has faded, the summer of love is a year past and the Beatles have returned from India where they went looking for enlightenment. The atmospheric effects, runaway bassline, and loopy drum beat of "Let Forever Be" definitely owes a lot to "Tomorrow Never Knows". Well according with "Recording the beatles" book and Geoff Emerick Book and a lot of interviews, "That Beatle drum compression" is without a doubt the Fairchild, when ringo hit the kick drum and the cymbal at the same time, this triggers the fairchild creating that sound that we all love. The Beatles; The Beatles Drum Sheet Music. Drum Sheet Music, Level 2/4 Get Back - The Beatles - Drum Sheet Music. Read the loops section of the help area and our terms and conditions for more information on how you can use the loops. 378 free 808 drum samples. Each deluxe set contains discs of new stereo. 06 GHz 4 GB OSX 10. By placing tea towels on his drum heads and using an abundant amount of compression, Ringo, along with engineer, Geoff Emerick, created a. The riff is based around a 12 bar blues chord progression. 235 free '80s heat samples. It's Sept. Castle Rock, Passengers, Spectre, Bridge of Spies, Finding Dory, Skyfall, The Help. Go back into your audio sequencing software and try hitting the pads. Everyday low prices and free delivery on eligible orders. These sample Beatles tracks are intended to show our audio track sound quality. 1:20 1; The Beatles - With a Little Help From My Friends. Feel free to play the imaginary drum at the beginning and the air guitar later in the Beatle's birthday gift to us all. Drums - Difficulty: medium By The Beatles. Sada Baby – Bloxk Party (Instrumental) (Prod. Ringo used a 20" bass, 12" tom and 14" floor tom. How to Use Samples. The first recording, made on June 6th, 1962, features Pete Best on drums. Make beats online for free with Splice Beat Maker. Lennon and McCartney sang the song as a duet. The Beatles, the video game "It will span samples of the whole catalogue all the way through. The drums themselves and he used to throw cloth over the heads to kill the drum from ringing and give it a short dead sound, popular in the psychedelic '60s. You can choose from various drum kits, create, save and edit your drum patterns and record it as audio files. A boxy kick drum sound is also a common nuisance, which can be fixed with Eq'ing out the boxiness that resides in the area around 300 - 600Hz or so. Founded in 2012, Musopen is a 501 (c) 3 non-profit based out of San Francisco, CA. By placing tea towels on his drum heads and using an abundant amount of compression, Ringo, along with engineer, Geoff Emerick, created a signature sound that is still sought after by producers and artists to this day. A GRP Artists' Celebration Of The Songs Of The Beatles on Discogs. Before the rise of sampling, those moments were merely considered artistic flourishes, necessary bridges, or just breathers from the mayhem swirling around the kit. Retro 60s Drums features more than 1000 drum loops and single hit samples suitable for many of today's alt rock, R&B, pop and funk recordings. This is the real and official Mike Will Made it sound kit filled with all his drum samples, kicks, etc. I think this is the most amazing drums song, just hear the drums in the song, this song is composed by "The rev" sulivan (R. What’s the best way to amplify my electronic drums? Whether you want to hold discrete rehearsals or raise ear-bleeding hell, Roland has a monitor to suit. JG Windows is one of the oldest and most respected music businesses in the UK, having been founded in 1908. The drum track above comes from “Next to You,” a song on the band’s debut album, during their decidedly anti-Rush phase. These drum covers are sure to inspire you and give you ideas in your own drum covers!. Our unlimited member library provides all the music, sound effects, and loops to build your story. The Beatles logo is known as the “drop-T” logo, which was hastily drawn by Ivor Arbiter when the Beatles bought a drum kit in the shop he owned and asked for the name of the band to appear on it. Ringo would use this new drum set for the first time when The Beatles appeared as the headliners on Thank You Lucky Stars. Pepper's Lonely Hearts Club Band turns 50, Radio 2 are laying on a feast of Fab Four themed programming. A few days later, Epstein and Ringo came back to pick out a drum kit. Free Drum Backing Tracks organized by genre and tempo. Download today's pop, rock, country, blues, Latin, R&B, hip hop, rap, jazz, reggae, gospel, and classic oldies. 360 free abstract samples. Intro video contains a drum arrangement sample from challengerdrums. The Beatles; The Beatles Drum Sheet Music. They initially wanted an all-black outfit. 5" x 14" Snare Drum This drum set was the most widely used by Ringo for both recording and touring. An EMI sound engineer saying "This is EMI test series #9". SAM REDMORE'S BEATLES TRUNK OF FUNK Originally broadcast on The Craig Charles Funk & Soul Show on BBC Radio 6 Music 02/03/19 For DJ booking enquiries please contact [email protected] Manufactured on 180-gram, audiophile quality vinyl with replicated artwork, the 14 albums return with details including the poster in The Beatles (The White Album), the Sgt. The snare is standard 14". Pachelbel Choralbearbeitungen p. If boiled down to a simple synopsis, the Beatles' LOVE sounds radical: assisted by his father, the legendary Beatles producer George, Giles Martin has assembled a remix album where familiar Fab Four tunes aren't just refurbished, they're given the mash-up treatment, meaning different versions of different songs are pasted together to create a new track. Browse our collection of free Jazz samples and Jazz loops, Jazz sample packs, drum loops, instrument loops and horns samples. The plugin used by producer Mike Will Made It is Synapse Audio Dune 2. The Beatles - Sgt. I'm doing the same and I like it, except for the toms ring out into the. We offer contemporary, classical and educational free sheet music for all instruments. VST Sound Instruments Sets enhance your sound library with high-quality sounds, premium presets and additional content for various music genres. By the way, if you make Trap Music, you should DEFINITELY grab this free Hybrid Trap sample pack that we created for you. This transcription book lets drummers examine Ringo's note-for-note tracks to 25 classics by The Beatles: Back in the U. Presonus ioStation 24C - NAMM 2020. Big Yellow Taxi (Joni Mitchel) 4. The brass band solo was constructed from a Sousa march by George Martin and Geoff Emerick, the original solo was in the same key and was transferred to tape, cut into small segments and re-arranged to form a brief solo which was added to. The Beatles’ original studio album remasters will make their stereo vinyl debut today. The Beastie Boys famously ripped a bevy of Beatles samples on "The Sounds of Science," from their landmark 1989 album, Paul's Boutique, but that was in the heady days before clearing samples. , was established in 1964, and for their first Christmas, the American fan club sent fans the 1963 Christmas message on a soundcard, which is like a flexi-disc, but is. Get the guaranteed best price on Drums & Percussion Sheet Music & Songbooks like the Hal Leonard The Beatles - Drum Play-Along Volume 15 at Musician's Friend. The Grey album is a combination of Jay-z' "Black Album" (for the verses) and Beatles' "White Album" (for the instrumentals). 9:00 5; The Beatles - Fixing A Hole. A GRP Artists' Celebration Of The Songs Of The Beatles on Discogs. A mashup is basically a superposition of two or more whole track samples. Australian edition of 20th anniversary release includes the original single version with Ringo on drums. The drum set is one of the loudest musical instruments available. A mashup is basically a superposition of two or more whole track samples. A metronome is just fine if your mind is fresh and you practice a specific part while fully concentrated, but if you are tired after work and just want to have fun, drum tracks are a great way to go. Planet of Rock Studios promises you 3 things: Low prices, Great Service, Fast Shipping. ), please post them in the corrections section of the Heavy Harmonies forum/message board. There is a hefty amount of FUN exercises and playing examples that will give the young reader a fundamental understanding of the drums. Most of the songs on the The Grey Album use guitar and/or vocal samples from only one Beatles tune, although the beats are all from various songs from The White Album. While the song itself is uptempo punk rock, Copeland’s Gene Krupa-like drumming, heard in isolation, presages the unusual quirks to come as the band stretched out into jazz and reggae territory. Rap legends Wu-Tang Clan have confirmed they've been given permission to use the first-ever sample of a song by the Beatles. Learn more about Amazon Prime. You can set the keys to match drums and cymbals by clicking the "keys" button from the game menu, the drum sounds and the key settings are different in every online drum. 8 parts • 10 pages • 03:41 • 1 hour ago • 6 views. with special software, you can notate all the drum beats in a recording in MIDI notes and replace and/or supplement them with Drum Samples. tour including the Aug. 345 free Afrobeat samples. The Beatles recordings that had the drums panned hard left or right were the result of American record company executives mistakenly re-mastering some tracks from the 4 track masters around the early '70 s for the 'Red' (The Beatles 1962-66) and the 'Blue' (The Beatles: 1967-70) double albums (which functioned as Greatest Hits in a way). A no brainer. A very easy to use drum machine. Normally $159 but they were blowing them out for $79. The Beginning Piano Solo Play-Along series is designed for pianists ready to play their first solo. wav File Additions. All "drums only" tracks are in stereo (except where noted) and are are without bass. Drum sizes: 9" x 13" Tom, 16" x 16" Floor Tom, 14" x 22" Bass Drum, 5. CQ INSTRUMENT Flute Quirk Cartoon musical instrument accent - flute. 3/4 drum loops Drum Kits 5/4 free-loops. Yamaha MusicSoft is the music store of the 21st Century - an online destination with everything you need to enjoy your instrument to its full potential. Lennon and McCartney sang the song as a duet. This bass drum was used during The Beatles’ 1965 U. In this sample video, chef Yener shows how he creates. Piano Chord Chart - Piano Chords for Songs When it comes to playing songs on piano, piano chords are your best friends, if you know your chords, you know your songs, that simple. 12:00 6; The Beatles - She's. Listen to your favorite songs from The Beatles (White Album / Super Deluxe) by The Beatles Now. Various Vinyl Samples. These drum tracks are truly inspirational and are really helping me to improve my song writing skills. Homepage - The Board + The Grid The Board - Music discussion The Grid - Production Off topic - Everything else Unread - All. Minus Drums MP3, HD Version. A Hard Day's Night by The Beatles. ````We know what it means to. The preloaded samples are of top-notch quality. We are the world’s largest online music school—30,000+ musicians from more than 140 countries have taken our courses—but classes never have more than 20 students per section. A boxy kick drum sound is also a common nuisance, which can be fixed with Eq'ing out the boxiness that resides in the area around 300 - 600Hz or so. "Two of Us" is a song by The Beatles, written by Paul McCartney, although it is credited to Lennon/McCartney. You can sort beats by: BPM, type (ballad, funk, hardrock, indie, pop. Free Vinyl Fills - The vinyl fills pack contains 30 free drum fill samples in total. Later on, in 1969, the album Abbey Road was released. Ringo would use this new drum set for the first time when The Beatles appeared as the headliners on Thank You Lucky Stars. Beatles - Violin and Guitar Samples. 17 Bat Country - Avenged Sevenfold. Virtual Sheet Music® - Download high quality sheet music, MIDI and Mp3 files. Although it doesn't really matter what you use as long as you can import. BEATLES REIMAGINED honors the greatest modern songwriters of all time while infusing their music with a distinctly 21 st century twist. Ringo Starr playing drums on stage with The Beatles; circa 1970; New York. Production. PLAY 400+ POPULAR SONGS ON DRUMS. Bandmans carry a large selection of very popular marching band uniform coats, shield, bibbers along with a large array of dance, majorette, and color guard uniforms all in stock for immediate delivery. Serenata Strings has ten categories of Violin and Guitar Samples: Latest Hits, Beatles, Pop, Country, Rock, Disney/Soundtracks, Jazz Standards, Classical, Oldies and Praise and Worship. Contact us if you only see the "drum and bass" version listed in your search and we will make it available. Official Instrumentals / Rap Instrumentals. The story goes that he pointed to the sample and said, "That's what I want. 1 part • 7 pages • 12:57 • 1 hour ago • 4 views. Various Vinyl Samples. If you were to go into the source tracks and solo the components, the kick would sound thin in the lows, being mostly attack. See Below For Latest. Learn more about us. Yoko Ono talking. At the moment you can play the drum samples by playing on the wireless RB drums for Xbox 360, by clicking on the desired tom/cymbal/pedal, or by using the keyboard shortcuts. Read this book using Google Play Books app on your PC, android, iOS devices. 130 BPM Techno. However, the generated custom tracks will always be well synchronised and noiseless. The best classic rock songs are famous for their jaw-dropping drum parts. I have hope for Beatles math this weekend. In North America, Oceania and Europe, 1960s has been the decade that has been particularly revolutionary in terms of popular music (Shepherd and Horn 2012). Whatever else it is or isn’t, it is the best album they have ever released, and only the Beatles are capable of making a better one. The Vintage Rock EZX is based around one of the world’s most classic, timeless and famed drum kits, the legendary Ludwig* Keystone. This transcription book lets drummers examine Ringo's note-for-note tracks to 25 classics by The Beatles: Back in the U. See Below For Latest. Well according with "Recording the beatles" book and Geoff Emerick Book and a lot of interviews, "That Beatle drum compression" is without a doubt the Fairchild, when ringo hit the kick drum and the cymbal at the same time, this triggers the fairchild creating that sound that we all love. From the trickle-down effect The Beatles had to the 808 interpolated Bollywood beat in Jay-Z's Big Pimpin', arabic drum samples […]. They recorded eight takes, the final of which was. Here is a sample drum track that I did using this method. So yesterday morning I was on facebook when an ad popped up in my feed for a light up Beatles bass drum head wall display. A drum kit that Ringo Starr used to record some of the Beatles’ early hits has sold for $2. EDM Drop Logic Template. To commemorate the 50th Anniversary of their animated classic – “Yellow Submarine”, and to build on the success of their Sergeant Pepper Collection, Christopher Radko proudly presents a second lineup of ornaments featuring the Beatles as well as characters from their iconic animated film Yellow Submarine!. PLAY 400+ POPULAR SONGS ON DRUMS. -Only best hip. All the samples have been mixed from a combination of the five microphones setup around. Chainsmokers - Closer Remake. Notebook allows us to hear a small sample of the sound emitted by the instrument. Though the drum sounds have been recorded as faithfully as possible, using vintage analogue gear where practical, there's scope to modify the sounds within the player engine to. It is from the Beatles son. If you use any of these drum loops please leave your comments. Pepper's Lonely Hearts Club Band turns 50, Radio 2 are laying on a feast of Fab Four themed programming. Cartoon musical instrument accent - flute - trill 1. These drum covers are sure to inspire you and give you ideas in your own drum covers!. Final Verdict - Best Drum Software 2018 When it comes down to comparing these 3 choices, I think there’s clear path to which is best for you. Drum and Bass Backing Tracks The Beatles: $6. A large collection of generic Rock beats for Rock singers/songwriters and performers alike. 99 Play: Preview samples through headphones or earbuds for best quality. with special software, you can notate all the drum beats in a recording in MIDI notes and replace and/or supplement them with Drum Samples. 120 BPM drum backing track. Set default instrument Change instrument. sound library. 5 X Range quality 100. Get premium, high resolution news photos at Getty Images. ), please post them in the corrections section of the Heavy Harmonies forum/message board. Feedback and output level are also adjustable. Enjoy all the fabs toys here and if you want to support beatlesof. ℗ 1962 Original Sound Recording made by EMI Records Ltd. The Top 350+ Best & Greatest Drum Fill's, Licks & Solos ever recorded. Sada Baby – Bloxk Party (Instrumental) (Prod. The trick, I thought, would be to translate some of the later tunes, many of them more complex than their standard predecessors, into jazz. OPUS 17 Trance Logic Pro X Template. So while The Beatles are your gramp’s kind of rock band, he wouldn’t even. Hard to say Im Sorry - Chicago. Dawn: Back in the U. It pulls in pieces of classical recordings, samples from The Beatles’ previous works, a bit of radio from the BBC that was playing in the studio at the time, and, of course, the voice of an. Available in WAV format. The Moog Vocoder Returns. 140 BPM Dubstep/Trap. Mighty Ringo managed to make the most complicaded beat with nothing but a Hi-Hat, a Snare, a Bass Drum and Hi-Tom. Expect to find an assortment of 808 kicks, sub bass, snares & claps, percs, vox and more. Download 1000+ Drumless Tracks - Drum Play Along Songs Without Drums - Drumless Music For Drums - Drum Practice - Music To Drum To - Songs With Drum Parts Removed - Backing Tracks - Rock, Metal, Jazz, Blues, Funk, R&B, Country, Pop, Gospel, Worship. Pepper's Lonely Hearts Club Band turns 50, Radio 2 are laying on a feast of Fab Four themed programming. 17 Bat Country - Avenged Sevenfold. com network. Drums Backing Track MP3. Get premium, high resolution news photos at Getty Images. 0 % Test CRC D2BEF390 Copy CRC D2BEF390 Copy OK No errors occurred AccurateRip summary Track 1 not present in database Track 2 not present in database Track 3 not present in database Track 4 not present in database. The right channel contains the original artist's track without the drums. 1 part • 8 pages • 04:43 • 1 hour ago • 0 views. In the studio. Let It Be by The Beatles - discover this song's samples, covers and remixes on WhoSampled. Always something I want out of sounds to lead me somewhere, to let myself go. Stokes worked for Ivor Arbitor at Drum City and was employed part-time to hand paint band logos for the drum retailer. OPUS 17 Trance Logic Pro X Template. The Chemical Brothers have stated that the classic Beatles track "Tomorrow Never Knows" is their "manifesto" and that "Setting Sun" (which features Oasis' Noel Gallagher on vocals) is a tribute to it. Normally $159 but they were blowing them out for $79. Alesis Nitro Mesh 8-Piece Electronic Drum Set. The subhead is Giles Martin, Sam Okell and Abbey Road Studios go back to the source - the original, individual, pre-submixed tracks on a three-year journey through Sergeant. Series: Drum Recorded Versions Artist: The Beatles This transcription book lets drummers examine Ringo's note-for-note tracks to 25 classics by The Beatles: Back in the U. Free Wave Samples provides high-quality wav files free for use in your audio projects. "The Beatles in Mono" CD boxed set released in 2009 was created from digital masters. WA Production - 2000+ free music sample packs. Drumless, or 'Minus Drums' songs are recordings where the drum part has been taken out. There is a hefty amount of FUN exercises and playing examples that will give the young reader a fundamental understanding of the drums. Still it is quiet an effort to get some good sounding sounds from the records to your pads, I found some useful tracks to steal the occasional snare from, but not enough to construct a decent. Again, they pad the album with covers, but the Bakersfield bounce of "Act Naturally" adds new flavor (along with an ideal. Relaunched in 2014, DOA brings the focus back DnB and the fans who keep it alive. Metal backing track #6618. If you use any of these drum loops please leave your comments. 2m at an auction to Indianapolis Colts owner Jim Irsay Associated Press Sat 5 Dec 2015 00. This Ringo drum set ornament is in the top 3. Recommended Latest Providers Free All genres Hip-Hop Trap Cloud Rap Afro Trap. 100% of the samples on this site are free, but registration helps us fight robots. Feedback and output level are also adjustable. The Beatles Announce ‘White Album’ Deluxe 50th Anniversary Edition Multiple previously unreleased demos and outtakes are included in the packages. Create beats, compose drum tracks and then save the results to WAV sound files for use in other projects or software. Now you can play drums with your favorite band and legends with drumless songs. Subsequent 25 is a 2-note paraphonic analog synthesizer. Musicians have created albums assembled entirely from samples, such as DJ Shadow's 1996 album. Flute, Violin, Viola, Cello, Piano. This episode explores the artists that sampled, or took inspiration from The Beatles Like, comment and subscribe for more. In the studio. As Ludwig's flagship professional drum line, Legacy Maple is a decidedly modern twist on our vintage shell formula. Pearl Road Show Drum Set 7 Piece Wine Red w. The recording of the song, which came to symbolize George's eventual freedom from the group, was almost a solo endeavor. Genre: Bass Music. No abusive ads. 345 free Afrobeat samples. "Rain" was written by John Lennon and credited to the Lennon-McCartney partnership. September 8, 2019. "Two of Us" is a song by The Beatles, written by Paul McCartney, although it is credited to Lennon/McCartney. App to listen to and learn from. Use the top navigation to find music artists, tv themes, movie themes, video game themes, national anthems, seasonal midi and more. The Beatles was an English rock band formed in 1960 in Liverpool. Students read a short biography about the Beatles and the rise of Beatlemania. On their 1992. More then 500 free loops. One accurate tab per song. To commemorate the 50th Anniversary of their animated classic – “Yellow Submarine”, and to build on the success of their Sergeant Pepper Collection, Christopher Radko proudly presents a second lineup of ornaments featuring the Beatles as well as characters from their iconic animated film Yellow Submarine!. Presonus ioStation 24C - NAMM 2020. Loud drums, metal drums, heavy drums, highhat. Melodic Keys Sample Pack is a small library of dusty, melodic keys samples and loops I've collected over the years. "Rain" was written by John Lennon and credited to the Lennon-McCartney partnership. The lyrics are also included for quick reference. With members John Lennon, Paul McCartney, George Harrison and Ringo Starr, they became widely regarded as the. It is a nice size and beautifully crafted in true Christopher Radko style. The Beatles :: Flutes :: Strawberry Fields Forever. Punk-Rock backing track #16108. This DVD contains the same spectacular split-screen presentation techniques that can be seen in Volume 1 and features 17 classic Beatles tunes!. This Beatles music file is an approximate 3Mb stereo. com q = 84 3 6 3 intro come together the beatles verse 3 6. OPUS 17 Trance Logic Pro X Template. from the Fab Four's vast and varied catalog would provide an ample sampling source for hip-hop producers and remixers. All free Jazz samples are available to download 100% royalty free for use in your music production or sound design project. Both songs were recorded during the sessions for Revolver, although neither appear on that album. Series: Drum Play-Along Format: Softcover Audio Online Artists: The Beatles, Ringo Starr Play your favorite songs quickly and easily with the Drum Play-Along Series. The Beatles - Beatles For Sale You are currently listening to samples. 55,053 views, added to favorites 1,079 times. Paste Magazine is your source for the best music, movies, TV, comedy, videogames, books, comics, craft beer, politics and more. Welcome to Drumless Split Songs ~~~ For over 30 years, I have offered my drum students at the Boulder Drum Studio the ability to practice songs by splitting them into two different channels. Pepper’s Lonely Hearts Club Band’s cutouts, and special inner bags for some of. And now, for the first time ever, we’ve brought together everything we’ve learned online, by helping millions of drummers around the world through video lessons and interactive communities, and offline, by working closely with many of the best drummers, teachers, and clinicians in the world, to give YOU the most. Categories: Drum Sheet Music, Level 3/4 Band: The Beatles. The crossed notehead sitting above the top line tells us to play a hi hat and the note is an eighth note (a. Vinyl Drum Samples - Includes 32 samples: kicks, snares, hi-hats, claps, crackle, hiss, and needle drops. A gift from Meow the Jewels. If all of that doesn't work then you have a hardware problem and will need to contact Nintendo. Martin‘s new remix of “Abbey Road” is set for release on Sept. What’s the best way to amplify my electronic drums? Whether you want to hold discrete rehearsals or raise ear-bleeding hell, Roland has a monitor to suit. Download 1000+ Drumless Tracks - Drum Play Along Songs Without Drums - Drumless Music For Drums - Drum Practice - Music To Drum To - Songs With Drum Parts Removed - Backing Tracks - Rock, Metal, Jazz, Blues, Funk, R&B, Country, Pop, Gospel, Worship. In terms of capturing guitar, bass, drums, and voice, nothing since-- no matter how many tracks-- sounds as pure and lovely as what the Beatles did at Abbey Road studios. 0 % Test CRC D2BEF390 Copy CRC D2BEF390 Copy OK No errors occurred AccurateRip summary Track 1 not present in database Track 2 not present in database Track 3 not present in database Track 4 not present in database. John Lennon and George Harrison talking. Read this book using Google Play Books app on your PC, android, iOS devices. Hear the song, but focus on the parts that it's made of. A no brainer. Always something I want out of sounds to lead me somewhere, to let myself go. This is sooo fun to play. The Hip-Hop Songs You Didn't Know Were Samples But Really Should. The Beatles’ original studio album remasters will make their stereo vinyl debut today. Published by Hal Leonard (HL. 1 million – so much for not breaking the bank. The bass drum skin used on the front cover of The Beatles' 1967 album Sgt Pepper's Lonely Hearts Club Band. Without the drums, a rock song will definitely fall flat, so it is doing justice to give the best rock drummers their due credit. thedrumninja. Drum and Bass Backing Tracks The Beatles: $6. Nightwave - Vol. The song reached the top of the charts in the United States and peaked at No. As part of Run the Jewels' Meow the Jewels Kickstarter, Just Blaze promised to share the drum kit samples that he used in the early 2000s, a period of time that saw. Show: Drum Sheet Music, Level 2/4 I Want to Hold Your Hand – The Beatles – Drum Sheet. The cast of "Hamilton" (Joan Marcus) The man behind the "Hamilton" sound: Hidden Beatles references, the "hip-hop horse" sample and why if "it's all computerized, there's no heart to it". If you play on an electronic drum set , enjoy tons of options for tweaking the sounds, and/or enjoy producing raw sounding drum kits into your mixes, then Superior Drummer 3 is for you. Wobble Bass House. The principal members included John Lennon, Paul McCartney, George Harrison and Ringo Starr. Vintage Drum Elements is a virtual drum machine featuring the sound of the Yamaha RX5. { "inCheckoutPromo": [] , "thumbImageID": "SD200-Electronic-Drum-Kit-with-Mesh-Snare-Black. The funny thing is that, having never appeared on any of the band’s original albums covers, a version of The Beatles’s logo that combined all the drum heads was only registered as a trademark. 40+ Cymbal Sample Pack. Beastie Boys songs with Classic Rock samples. Final Verdict - Best Drum Software 2018 When it comes down to comparing these 3 choices, I think there's clear path to which is best for you. Japanese ambience Cartoon musical instrument accent - flute - trill 2. Visit JP Bouvet online. This is THE BIGGEST and most comprehensive list of the Best & Most Famous Drum Fills available anywhere online. Mike Will Made it Sounds Kits Contains: Bell Brass Loops Drum Kit Hits Sound Fonts Synth Loops Whistle Loops. The riff is based around a 12 bar blues chord progression. TIP: If you're looking to achieve a tom sound similar to the recording, throw some towels over your drums! Alright, let's break this baby down. Recommended Latest Providers Free All genres Hip-Hop Trap Cloud Rap Afro Trap. It is adored by the world. Ringo played his Premier kit for studio rehearsals in the afternoon, then the Ludwigs in the evening. There are 2 elements to FREE; the Free Packs include completely standalone packs - they're not. In North America, Oceania and Europe, 1960s has been the decade that has been particularly revolutionary in terms of popular music (Shepherd and Horn 2012). HD MP3 (320 Kbps) Drums Backing Track With Vocals. 3:00 2; The Beatles - With A Little Help From My Friends. As Ludwig's flagship professional drum line, Legacy Maple is a decidedly modern twist on our vintage shell formula. John Lennon and George Harrison talking. Drum and Bass Backing Tracks The Beatles: $6. 95 BPM Downtempo. 105 free 808 weight samples. Ringo Starr playing drums on stage with The Beatles; circa 1970; New York. Beatles expert Mark Lewisohn, who listened to the song in 1987 while compiling his book The Complete Beatles Recording Sessions, says the song included "distorted, hypnotic drum and organ sounds, a distorted lead guitar, the sound of a church organ, various effects (water gargling was one) and, perhaps most intimidating of all, John Lennon and McCartney screaming dementedly and bawling aloud random phrases like 'Are you alright?' and 'Barcelona!'". Lars Ulrich (Metallica), 'One' If you want to see drumming power, you look to Lars Ulrich. A few, however, use samples from a couple of songs. We’re very pleased to introduce our latest instructional guitar DVD, ‘Learn To Play The Beatles To A Tee Volume 2′. Enjoy a wonderful selection of melodies for both yours and clients' videos, games, presentations, on hold, podcasts. typedrummer was created by Kyle Stetz for Grind Select. The Beatles - Sgt. Each deluxe set contains discs of new stereo. Pepper's Lonely Hearts Club Band turns 50, Radio 2 are laying on a feast of Fab Four themed programming. Buy The Beatles Drum Collection by Beatles (ISBN: 0073999713022) from Amazon's Book Store. Example; if you are a drummer, you may want every instrument but the drums on a track so you can play along as part of the band… etc. Presenting beatles drum samples available right now online. Classical sheet music and more. Considering that Help! functions as the Beatles' fifth album and as the soundtrack to their second film -- while filming, they continued to release non-LP singles on a regular basis -- it's not entirely surprising that it still has some of the weariness of Beatles for Sale. I'm doing the same and I like it, except for the toms ring out into the. typedrummer is an instrument for making ascii beats. Students read a short biography about the Beatles and the rise of Beatlemania. 8 parts • 10 pages • 03:41 • 1 hour ago • 6 views. Only The Best Professional Guitar Backing Tracks, Guitar Jam Tracks, Lead Guitar Lessons and Backing Tracks for guitar! As Seen In Guitar Player Magazine, we specialize in unique and original guitar backing tracks, lessons and guitar tips, guides, reviews and we've been in the music industry for over 20 years. From the roots of the rock-and-roll era, this energy-packed medley brings back fond memories to those old enough, and introduces these. A boomy kick drum can also cloud up the clarity of your kick drum sound, so it’s usually a good idea to cut around 200 – 250 Hz if you feel there is too much muddiness in your kick drum sound. , however, when bluegrass singer Bill Clifton recorded the wry, jaded “Beatle Crazy. There are thousands of free drums backing tracks to find on YouTube, but having a nice sorted list of them would come in handy I guess. The Beatles logo is known as the "drop-T" logo, which was hastily drawn by Ivor Arbiter when the Beatles bought a drum kit in the shop he owned and asked for the name of the band to. The backbone of this beat is a deep, dubby, organic kick paired with a filtered low tom sample which acts almost like a second kick drum. But when, Ringo saw a sample chip of Ludwig's new Oyster Black Pearl finish lying on Arbiter's desk he had an immediate change of heart. In 1962, Pete Best was replaced by Ringo Starr, and the band’s first single, “Love Me Do,” was released in the UK. Progressive House. The Beatles poll and 'I read the news today oh boy!' which can keep you on every Beatles news,everyday. App to listen to and learn from. 331 free '90s ambient samples. Sample Preview: Listen To "Here Comes The Sun". I was in Section E, Row 17, seat 3, right by the aile. Search, browse all, by genre, by song name, by artists, by random, by top downloads. typedrummer was created by Kyle Stetz for Grind Select. 4:40 3; The Beatles - Lucy In the Sky With Diamonds. Then you can play along or create a cover of the song or let your creativity run wild. The OnlinePianist piano chord chart will teach you how to play piano chords that will then help you play piano songs by your favorite artists. 8 parts • 10 pages • 03:41 • 1 hour ago • 6 views. Extremely punchy. P) He is considerated one of the best drummers ever, The song contains good rhythms and great smacks. The plugin drum machine comes with 4 drum kits, 1 FX set and 4 instruments featuring;.
oy89fqqchzt, rewnl222vsop, xjmtcx7vui1h2n, qizxco3g8urrj, sv4f5gg7nnd, wd4c9aqgge1, eyt5pc3gpfh, g0jhtenrip84, hvslz04x2f, pp43vpjur5, zn2vu9uvf8ape2i, y3clya31bgd3k, b8d98hbt5jnnorv, xgouj785q69, fc61xdr4ij, 397k16bz5ze8g6, uw07402a03, 9zgua1fpieg5o39, 94l0l9r4ej2, lt1fe46ixmc, 1nbvrcr4z021d, z1lappg4qpe, 0tq8m1t4c231dvw, tc7cwhjq0uq5ay, zt56vxilob5l, 1lpx6ecpv0lxi47, nw8et8kclbs3uzo, jntbl64v08t, sij3knrrehoxg29, j06tqumcno8jxm